#TITLE:Xanadu;
#SUBTITLE:by young_editer@hotmail.com;
#ARTIST:Stormlord;
#TITLETRANSLIT:;
#SUBTITLETRANSLIT:;
#ARTISTTRANSLIT:;
#CREDIT:;
#BANNER:129_logo[1]-bn.jpg;
#BACKGROUND:stormlord-bg.jpg;
#LYRICSPATH:;
#CDTITLE:Nepex-Chart.bmp;
#MUSIC:Stormlord (Xanadu).mp3;
#OFFSET:-0.220;
#SAMPLESTART:99.740;
#SAMPLELENGTH:12.000;
#SELECTABLE:YES;
#BPMS:0.000=104.000,42.000=208.000,454.000=225.000,591.000=212.000,663.000=208.000,815.000=125.000,816.000=118.000,817.000=110.000,818.000=97.500,819.000=91.501,820.000=73.001,829.000=197.501;
#STOPS:590.500=0.800
;
#BGCHANGES:;

//---------------dance-single - Black Metal Epic----------------
#NOTES:
     dance-single:
     Black Metal Epic:
     Hard:
     13:
     1.000,1.000,1.000,1.000,1.000:
0000
2020
0000
0000
0000
0030
0100
0000
,
0001
0000
0000
0000
0100
0000
0000
0000
0000
0000
0000
0000
0000
0000
0000
0000
0001
0000
0000
0000
0100
0000
0000
3000
2002
0000
0000
0000
0000
0000
0000
0000
0000
0000
0000
0000
0000
0000
0000
0000
0000
0000
0000
0000
0000
0000
0000
0000
0000
0000
0000
0000
0000
0000
0000
0000
3000
0000
0000
0000
0000
0000
0000
0000
,
0000
0000
0010
0000
0000
0000
0000
0000
0000
0000
1000
0000
0000
0000
0100
0000
0000
0000
0010
0000
0000
0000
0100
0000
0000
0000
1000
0000
0000
0000
0000
0000
0010
0000
0000
0000
0000
0000
0000
1000
0000
0000
0000
0000
0000
0000
0223
0000
0000
0000
0000
0000
0000
0000
0000
0000
0000
0000
0000
0000
0000
0000
0000
0000
,
0000
0000
0000
0000
0300
0000
1000
0000
0000
0000
0001
0100
0001
1000
0000
0000
,
0232
0000
0000
0000
0000
0000
0000
0000
0000
0000
0000
0000
0000
0000
0000
1000
0000
0000
0000
0000
0000
0000
0000
0000
0003
0000
0000
0000
0000
0000
0010
0000
1000
0000
0010
0000
1000
0000
0010
0000
1000
0000
0010
0000
1000
0000
0010
0000
,
1000
0010
1000
0010
1000
0010
1000
0322
0000
0000
0000
0000
0000
0000
0000
0000
0000
0000
0003
0000
0000
0000
0000
0100
,
0000
0000
0000
0000
0000
0000
0001
0000
0000
0100
0000
0000
0001
0000
0000
1000
0000
0000
0001
0000
0000
0000
0000
0000
0100
0000
0000
0000
0001
0000
0000
0000
1000
0000
0000
0000
0001
0000
0000
0000
2230
0000
0000
0000
0000
0000
0000
0000
0000
0000
0000
0000
0000
0000
0000
0000
0000
0000
0000
0000
0000
0000
0000
0000
,
0000
0000
0000
0000
0000
0000
0000
0000
0000
0000
0000
0000
0000
0000
0000
0000
0000
0000
0000
0000
0000
0000
0000
0000
3000
0000
0000
0000
0000
0000
0000
0000
0000
0000
0000
0000
0000
0000
0000
0000
0000
0000
0000
0000
0000
0000
0000
0000
0001
0000
0000
0000
1000
0000
0000
0000
0000
0000
0000
0000
0001
0000
0000
0000
0000
0000
0000
0000
0000
0000
0000
0000
1000
0000
0000
0000
0000
0000
0001
0000
0000
0000
1000
0000
0000
0000
0000
0000
0000
0000
0001
0000
0000
0000
0000
0000
0000
0000
0000
0000
0000
0000
1000
0000
0000
0000
0000
0000
0001
0000
0000
0000
1000
0000
0000
0000
0000
0000
0000
0000
0001
0000
0000
0000
0000
0000
0000
0000
0000
0000
0000
0000
1000
0000
0000
0000
0000
0000
0001
0000
0000
0000
1000
0000
0000
0000
0000
0000
0000
0000
0001
0000
0000
0000
0000
0000
0000
0000
0000
0000
0000
0000
1000
0000
0000
0000
0000
0000
0300
0000
0000
0000
0000
0000
0202
0000
0000
0000
0000
0000
0000
0000
0000
0000
0000
0000
0000
0000
0000
0000
0000
0000
,
0000
0000
0000
0300
0000
0000
0000
0000
,
0000
0000
0000
2023
0000
0000
0000
0000
0000
0000
0000
0000
3000
0000
0000
0000
,
0000
0000
0000
0000
0000
0000
0000
0000
0031
0100
0010
1000
0100
0010
0001
0100
,
0010
0100
0010
0100
0010
1000
0001
0100
0010
1000
0100
1000
0100
0010
0100
0010
,
0100
0010
0001
0010
0001
0100
0010
0100
0010
1000
0001
1000
0001
0100
0010
0100
,
0001
0100
0010
0100
0001
0010
0001
0100
0010
0100
0010
1000
0100
1000
0001
0100
,
0010
1000
0100
1000
0010
0100
0010
1000
0001
1000
0001
1000
0001
1000
0001
0100
,
0010
1000
0100
1000
0001
0100
0010
0100
0010
1000
0100
1000
0001
0100
0010
1000
,
0100
1000
0100
1000
0100
0001
0100
1000
0100
0001
0100
1000
0100
0001
0100
0010
,
0001
0100
0010
0100
0001
0100
0010
0001
0010
0100
0010
0001
0010
0100
0010
1000
,
0100
1000
0001
0100
0010
1000
0100
1000
0001
0000
0000
0000
0110
0000
0000
0000
,
1000
0010
1001
0000
0100
0000
0101
0000
,
0010
1000
0110
0000
0001
0000
1010
0000
,
0001
0100
0011
0000
0202
0303
2020
3232
,
0303
0202
2323
3030
2002
0000
3113
0000
,
0001
0100
1010
0000
1000
0000
0110
0000
,
1000
0001
1100
0000
0001
0000
1010
0000
,
1000
0100
0011
0000
0202
0303
2002
3223
,
0330
0220
2332
3003
2200
0000
3311
0000
,
0100
0000
0010
0000
1001
0000
0000
0000
0100
0010
0001
0100
0010
0100
0001
0100
,
0010
1000
0100
1000
0001
0100
0010
1000
0100
1000
0010
1000
0100
1000
0010
0100
,
0010
0100
0001
0010
0100
0010
0001
0100
0010
0100
0001
0010
0100
0010
0001
0010
,
0100
0010
0001
0010
0100
0010
0100
0010
0100
0010
0001
0100
0010
0100
1000
0100
,
0010
0100
1000
0100
0010
1000
0100
1000
0001
0100
0010
0100
0001
0010
0100
1000
,
0001
0010
0100
1000
0100
0010
0001
1000
0001
0010
0100
1000
0001
0010
0100
0010
,
0001
0100
1000
0100
0010
1000
0100
0001
0100
0010
0001
1000
0100
0001
0100
1000
,
0100
0010
0100
0010
0100
0010
1000
0001
0100
0010
0100
0001
0010
0001
0100
0010
,
1000
0001
1000
0010
1000
0000
0000
0000
0000
0010
0100
0010
0000
0000
0000
0100
,
0001
0100
0000
0000
0000
0001
0100
0001
0000
1000
0000
0000
0110
0000
0000
0000
,
0010
1000
0101
0000
1000
0000
0101
0000
,
0010
1000
0101
0000
1000
0000
0011
0000
,
0100
0001
1010
0000
0220
0330
2002
3223
,
0330
0220
2332
3003
2200
0000
3311
0000
,
1000
0100
1001
0000
0100
0000
0110
0000
,
1000
0011
0100
1010
,
0100
0000
1000
0000
0011
0000
0100
0001
2200
0000
3300
0000
0022
0000
2233
0000
,
3300
2200
3322
0033
0220
0000
1331
0000
,
0001
0000
0010
0000
1100
0000
0001
0100
0010
1000
0100
1000
0001
0100
0010
0100
,
0010
1000
0001
0100
0010
0100
0001
0010
0100
0010
0001
0100
0010
1000
0001
1000
,
0001
0100
0010
1000
0202
0000
0303
0000
2002
0000
3003
0000
2020
3030
2020
3030
,
2020
3030
2020
3030
2020
3030
2020
3030
2020
3030
0000
0000
0202
0000
2323
0000
,
3030
0000
2020
0000
3232
0000
1303
0010
2200
0000
3301
0000
2002
3003
2002
3003
,
2002
3003
2002
3003
2002
3003
2002
3003
2002
3013
0100
1000
0001
0010
0100
1000
,
0001
0010
0100
1000
0001
0010
0100
1000
0022
0000
0033
0000
2002
3003
2002
3003
,
2002
3003
2002
3003
2002
3003
2002
3013
2002
3003
0000
0000
2200
0000
3322
0000
,
0033
0000
0022
0000
2233
0000
3300
0000
1000
0010
0100
0001
1000
0010
0100
0001
,
1000
0010
0100
0001
1000
0010
0100
0001
1000
0010
0100
0001
1000
0010
0100
0001
,
1000
0010
0100
0001
1000
0000
0000
0000
2200
0000
3300
0000
0220
0330
0220
0330
,
0220
0330
0220
0330
0220
0330
0220
0331
0220
0000
0330
0000
2020
0000
3232
0000
,
0303
0000
0202
0000
2323
0000
3030
0000
0202
0000
0303
0000
2020
3030
2020
3030
,
2020
3030
2020
3030
2020
3030
2020
3030
2020
3130
0010
0001
1000
0100
0010
0001
,
1000
0100
0010
0001
1000
0100
0010
0001
0220
0000
0330
0000
0202
0303
0202
0303
,
0202
0303
0202
0303
0202
0303
0202
0313
0202
0303
0000
0000
0202
0000
2323
0000
,
3030
0000
2020
0000
3232
0000
0303
0000
0001
0100
0010
1000
0001
0100
0010
1000
,
0001
0100
0010
1000
0001
0100
0010
1000
0001
0100
0010
1000
0001
0100
0010
1000
,
0001
0100
0010
1000
0101
0000
0010
0000
1000
0000
0001
0000
0110
0000
1000
0000
,
0100
0000
1000
0000
0011
0000
0100
0010
0100
0000
0010
0000
1001
0000
0100
0000
,
0001
0000
1000
0000
0110
0000
0000
0000
2002
3003
0010
0100
0010
0000
1000
0000
,
0001
1000
0001
0000
1000
0001
1000
0000
0220
0330
1000
0100
0001
0000
1000
0000
,
0010
0100
1000
0000
1000
0100
0010
0000
1000
0000
0010
0000
0101
0000
1000
0000
,
0001
0000
0100
0000
1010
0000
0001
1000
0100
0000
0001
0000
0110
0000
1000
0000
,
0100
0000
0010
0000
1001
0000
0000
0000
0001
0100
0010
1000
0100
0010
0100
0010
,
0001
0100
0010
1000
0001
0100
0010
1000
0001
0100
0010
1000
0100
1000
0100
1000
,
0010
0100
0010
0001
1100
0000
0010
0000
1000
0000
0001
0000
0110
0000
1000
0000
,
0100
0000
1000
0000
0011
0000
0100
0010
0100
0000
0010
0000
1001
0000
0100
0000
,
0001
0000
1000
0000
0110
0000
0000
0000
2002
3003
0010
0100
0010
0000
1000
0000
,
0001
1000
0001
0000
1000
0001
1000
0000
0220
0330
1000
0100
0001
0000
1000
0000
,
0010
0100
1000
0000
1000
0100
0010
0000
1000
0000
0010
0000
0101
0000
1000
0000
,
0001
0000
0100
0000
1010
0000
0001
1000
0100
0000
1000
0000
0011
0000
0100
0000
,
0001
0000
0010
0000
1100
0000
0000
0000
0010
1000
0100
0010
0001
0100
0010
1000
,
0001
0100
0010
1000
0100
1000
0100
0010
0100
0010
0001
0100
0010
1000
0001
0100
,
0010
1000
0100
0010
1100
0000
0000
0000
0100
0010
0001
0100
0010
0100
0001
0100
,
0010
1000
0100
1000
0001
0100
0010
1000
0100
1000
0010
1000
0100
1000
0010
0100
,
0010
0100
0001
0010
0100
0010
0001
0100
0010
0100
0001
0010
0100
0010
0001
0010
,
0100
0010
0001
0010
0100
0010
0100
0010
0100
0010
0001
0100
0010
0100
1000
0100
,
0010
0100
1000
0100
0010
1000
0100
1000
0001
0100
0010
0100
0001
0010
0100
1000
,
0001
0010
0100
1000
0100
0010
0001
1000
0001
0010
0100
1000
0001
0010
0100
0010
,
0001
0100
1000
0100
0010
1000
0100
0001
0100
0010
0001
1000
0100
0001
0100
1000
,
0100
0010
0100
0010
0100
0010
1000
0001
0100
0010
0100
0001
0010
0001
0100
0010
,
1000
0001
1000
0001
1000
0001
1000
0100
0001
0000
0000
0000
0110
0000
0000
0000
,
1000
0010
1001
0000
0100
0000
0101
0000
,
0010
1000
0110
0000
0001
0000
1010
0000
,
0001
0100
0011
0000
0202
0303
2020
3232
,
0303
0202
2323
3030
2002
0000
3113
0000
,
0001
0100
1010
0000
1000
0000
0110
0000
,
1000
0001
1100
0000
0001
0000
1010
0000
,
1000
0000
0100
0000
0011
0000
0000
0000
0202
0000
0303
0000
2002
0000
3223
0001
,
1330
0220
2332
3003
2200
0000
3311
0000
,
0100
0000
0010
0000
1001
0000
0000
0000
0100
0010
0001
0100
0010
1000
0100
0010
,
0001
0100
0010
0001
0010
0100
1000
0100
2002
0000
3003
0000
0022
0033
0022
0033
,
0022
0033
0022
0033
0022
0033
0022
1033
0022
0033
0022
0033
0022
0033
0022
0033
,
0022
0033
0022
0033
0022
0033
0022
0033
0022
2233
3322
0033
0220
0330
2200
3300
,
0202
2323
3232
0303
1010
0000
0100
0000
0010
0000
2002
3003
1100
0000
0022
2233
,
3322
2233
3322
2233
3322
0033
0000
0000
0220
0000
0330
0000
2020
3030
2020
3030
,
2020
3030
2020
3030
2020
3030
2020
3130
2020
3030
2020
3030
2020
3030
2020
3030
,
2020
3030
2020
3030
2020
3030
2020
3030
2020
3232
2323
3030
2002
3003
0202
0303
,
0022
2233
3322
0033
1100
0000
0001
0000
1000
0000
0220
0330
0101
0000
2020
3232
,
2323
3232
2323
3232
2323
3030
0000
0000
0220
0000
0330
0000
0202
0303
0202
0303
,
0202
0303
0202
0303
0202
0303
0202
0313
0202
0303
0202
0303
0202
0303
0202
0303
,
0202
0303
0202
0303
0202
0303
0202
0303
0202
2323
3232
0303
2002
3003
2020
3030
,
2200
3322
2233
3300
0011
0000
1000
0000
0001
0000
0220
0330
1010
0000
0202
2323
,
3232
2323
3232
2323
3232
0303
0000
0000
2002
0000
3003
0000
2200
3300
2200
3300
,
2200
3300
2200
3300
2200
3300
2200
3301
2200
3300
2200
3300
2200
3300
2200
3300
,
2200
3300
2200
3300
2200
3300
2200
3300
2200
3322
2233
3300
0220
0330
0022
0033
,
2020
3232
2323
3030
0101
0000
0010
0000
0100
0000
2002
3003
0011
0000
2200
3322
,
2233
3322
2233
3322
2233
3300
0000
0000
1100
0000
0001
0000
0110
0000
1000
0000
,
0011
0100
1001
0010
0101
0010
1001
0100
,
0011
0000
1000
0000
0011
0000
0100
0010
1100
0000
0001
0000
0110
0000
0001
0000
,
1100
0010
0101
1000
0110
1000
0011
1000
,
0101
0000
1000
0100
0011
0000
0100
0000
1001
0000
0010
0000
1100
0000
0001
0000
,
0110
0001
1010
0100
0011
1000
0011
0100
,
1010
0001
0110
0001
1010
0001
0110
1000
,
0101
0000
0010
0100
1010
0000
0001
0000
0110
0000
1000
0000
0101
0000
0010
0000
,
0110
0001
0100
0010
1000
0100
0010
0100
1000
0000
0010
0000
0101
0000
0010
0000
,
1001
0100
0011
1000
0011
0100
1010
0001
,
0110
0000
0001
0010
1100
0000
0010
0000
0101
0000
1000
0000
0110
0000
1000
0000
,
0011
0000
1000
0000
0101
0000
0000
0000
0011
0100
1000
0001
0010
0100
1000
0001
,
0010
0100
1000
0001
0010
0100
1000
0001
1010
0000
0100
0000
0011
0000
1000
0000
,
0011
0000
0100
0000
1010
0000
0001
0000
0110
0000
0001
0100
1010
0000
0001
0000
,
0110
1000
0001
1000
0101
0010
0100
0010
1001
0000
0001
0000
0110
0000
1000
0000
,
0101
0000
0010
0000
0110
0000
0001
0000
1010
0100
0010
1000
0100
0010
1000
0010
,
0001
0010
0001
0100
1010
0000
0000
0000
0110
0000
0011
0000
0110
0000
1100
0000
,
0110
0011
1001
0110
1100
0110
0101
0110
,
1010
0101
1001
0110
0101
0011
1010
1100
,
0110
1001
0110
1010
0110
0101
0011
0101
,
1010
0110
1001
1100
0110
1010
0101
0110
,
0011
1010
0110
1010
0101
1001
0110
1001
,
0011
0000
0110
0000
1010
0000
0101
0000
0110
0000
0011
0000
1000
0100
0010
0001
,
0100
0010
1000
0100
1000
0010
0100
0010
1000
0001
0100
0010
1000
0100
0010
0001
,
0100
0010
1000
0100
0010
0000
0000
0000
0011
0000
0110
0000
1010
0000
0101
0000
,
0011
1001
0110
1010
0110
1001
0101
0011
,
1001
1100
0110
1001
0110
1010
0101
0011
,
1001
1010
1100
0101
1010
1100
0101
0011
,
1001
1010
0101
0011
0101
1010
0110
1001
,
1100
0110
0101
1010
0110
0101
0011
1001
,
1010
0110
1100
0101
0011
1001
1010
0110
,
0101
0000
1010
0000
0101
0000
0011
0000
1000
0100
0010
0001
0100
0010
1000
0001
,
0100
0010
1000
0001
0100
0000
0000
0000
1000
0100
1000
0100
0010
0001
0100
0010
,
0100
0010
1000
0001
1000
0001
0010
0001
0110
0000
0011
0000
0000
0000
1010
0000
,
0110
0000
0000
0000
0101
0000
0000
0000
2020
0000
3030
0000
0100
0010
0001
0100
,
0010
1000
0001
0100
0010
1000
0100
1000
0010
0100
0010
1000
0001
0100
0010
0100
,
0010
0001
0010
0100
0010
0001
0010
0100
0010
1000
0100
1000
0001
0100
0010
0100
,
0010
0001
0010
1000
0010
0001
0010
1000
0010
0100
0001
0100
1000
0100
0010
0100
,
1000
0100
0010
1000
0100
1000
0001
0100
0010
1000
0001
0100
0010
0100
0010
1000
,
0001
0100
0010
1000
0100
1000
0100
1000
0100
0010
0001
0100
0010
0100
0001
0010
,
0100
0010
0001
0100
0010
1000
0100
1000
0100
1000
0100
0010
0100
1000
0010
0100
,
1000
0100
0010
1000
0100
0000
0010
0001
0010
0001
0010
0000
0000
0100
0010
1000
,
0000
0000
0010
1000
0001
0000
0000
1000
0001
0100
0000
0000
0001
0000
0000
0000
,
0110
0000
1000
0010
1001
0000
0100
0000
,
0101
0000
0010
1000
0110
0000
0001
0000
,
1010
0000
0001
0100
0011
0000
0202
0303
,
2020
3232
0303
0202
2323
3030
2002
0000
,
3113
0000
1000
0010
1001
0000
0100
0000
,
0101
0000
0010
1000
0110
0000
0001
0000
,
1010
0000
0000
0000
0001
0000
0100
0000
0011
0000
1000
0010
0101
0000
0000
0000
,
1010
0101
1100
1001
,
0110
0000
0000
0000
0001
0000
0100
0000
1010
0000
0100
0001
1000
0010
0100
0010
,
1000
0001
0100
0010
1000
0100
0010
0001
1000
0100
0010
0001
0100
0010
0100
0000
,
0010
0001
0100
0000
0100
0001
0010
0000
0010
0001
1000
0000
1000
0001
1000
0000
,
0010
0100
0010
0000
0100
0010
0001
0000
1000
0100
0010
0000
0001
0100
0010
0000
,
0010
0001
0100
0000
0001
1000
0100
0000
0010
1000
0100
0000
0010
0001
0100
0000
,
0001
0010
0100
0000
0010
0100
1000
0000
0100
0010
0001
0000
0010
1000
0100
0000
,
0010
0001
0100
0000
0010
1000
0100
0000
0001
0100
0010
0000
0001
1000
0001
0000
,
0100
0010
0100
0000
0001
1000
0100
0000
1000
0001
0100
0000
0010
0100
1000
0000
,
1000
0100
0010
0000
0010
1000
0001
0000
0100
0010
0001
0000
0001
0010
0100
0000
,
0100
0001
1000
0000
1000
0001
0100
0000
0010
0100
1000
0000
1000
0100
0010
0000
,
1000
0001
0100
0000
0100
0001
1000
0000
0010
0001
0100
0000
0001
1000
0100
0000
,
0001
1000
0001
0000
0010
0100
0010
0000
0001
0100
0010
0000
0010
0100
0001
0000
,
1000
0100
0010
0000
0010
0001
0100
0000
0010
1000
0001
0000
0100
0010
1000
0000
,
0100
1000
0010
0000
0100
0010
0100
0000
0001
0100
0010
0000
0010
0100
0001
0000
,
0010
0001
0100
0000
0001
0100
1000
0000
1000
0100
0001
0000
0001
0010
1000
0000
,
1000
0010
0001
0000
0001
0010
0100
0000
0100
0010
1000
0000
0100
1000
0001
0000
,
0100
0001
0010
0000
0100
0010
1000
0000
0001
0100
0010
0000
1000
0001
0100
0000
,
0010
1000
0001
0000
0100
0010
0001
0000
1000
0100
0010
0000
1000
0001
0100
0010
,
1000
0001
0100
0010
0100
0010
1000
0100
0010
0001
0100
0010
0100
0001
0010
0100
,
0010
0001
0100
0010
1000
0100
1000
0010
0100
0010
1000
0100
0010
0001
0010
0100
,
1000
0100
0010
0001
0010
0100
1000
0001
0010
0100
1000
0100
0010
0001
1000
0100
,
0010
0001
0010
0100
1000
0001
0010
0100
1000
0100
0010
0001
1000
0100
0010
0001
,
0100
0010
1000
0100
0010
0001
0100
0010
1000
0100
0010
0001
0100
0010
1000
0100
,
0010
0001
0100
0010
0100
0010
1000
0100
0010
0100
1000
0010
0100
1000
0100
0010
,
0001
0010
0100
0010
0001
0100
0001
0010
0100
0010
0001
0000
0100
0000
1000
0010
,
0100
0001
0100
0010
1000
0001
1000
0000
,
0110
0000
0100
0010
1001
0000
0010
1000
,
0101
0000
0000
0100
1010
0001
1000
0000
,
0101
0000
1000
0010
1001
0000
0010
1000
,
0110
0001
0000
1000
0011
0100
0010
0000
,
1001
0000
0100
0001
1010
0000
0010
1000
,
0110
0001
0000
0010
0101
0010
0001
0000
,
1010
0000
0000
0000
0100
0000
1000
0000
0011
0000
0100
0010
1001
0000
0100
0000
,
0001
0110
1000
0100
0011
0000
0100
0010
,
1001
0100
0010
1000
0101
0010
0100
1000
,
0011
0100
0010
0001
1100
0010
0001
1000
,
0101
0010
0001
0100
1010
0100
1000
0100
,
1001
0100
0010
0001
0110
1000
0100
0010
,
1001
0100
0010
1000
0011
0100
0010
0100
,
1001
0000
0000
0000
0000
0000
0000
0000
0010
0000
0000
0000
0000
0000
0000
0000
0100
0000
0000
0000
0000
0000
0000
0000
1000
0000
0000
0000
0000
0000
0000
0000
0110
0000
0000
0000
0000
0000
0000
0000
1000
0000
0000
0000
0000
0000
0000
0000
M222
M000
M000
M000
M000
M000
M000
M000
M000
M000
0000
0000
0000
0000
0000
0333
,
22M2
00M0
00M0
00M0
00M0
00M0
00M0
00M0
00M0
00M0
0000
0000
0000
0000
0000
3303
2M22
0M00
0M00
0M00
0M00
0M00
0M00
0M00
0M00
0M00
0000
0000
0000
0000
0000
3033
222M
000M
000M
000M
000M
000M
000M
000M
000M
000M
0000
0000
0000
0000
0000
3330
M222
M000
M000
M000
M000
M000
M000
M000
M000
M000
0000
0000
0000
0000
0000
0333
,
22M2
00M0
00M0
00M0
00M0
00M0
00M0
00M0
00M0
00M0
0000
0000
0000
0000
0000
3303
2222
0000
0000
0000
0000
0000
0000
0000
0000
0000
0000
0000
0000
0000
0000
0000
0000
0000
0000
0000
0000
0000
0000
0000
0000
0000
0000
0000
0000
0000
0000
0000
0000
0000
0000
0000
0000
0000
0000
0000
0000
0000
0000
0000
0000
0000
0000
0000
,
0000
0000
0000
0000
0000
0000
0000
0000
0000
0000
0000
0000
0000
0000
0000
0000
0000
0000
0000
0000
0000
0000
0000
0000
3333
0000
0000
0000
2020
0000
3030
0202
,
0000
0000
0300
0000
0223
0000
0000
0000
0000
0330
0220
0000
0000
0000
0000
0030
1300
0000
0000
0000
0001
0000
0000
0000
0100
0000
0000
0000
0010
0000
0000
0000
1000
0000
0000
0000
0100
0000
0000
0000
0010
0000
0000
0000
0001
0000
0000
0000
0100
0000
0000
0000
0010
0000
0000
0000
0100
0000
0000
0000
1000
0000
0000
0000
,
0100
0010
0001
0010
1000
0010
0100
0001
0100
0010
1000
0100
0010
0100
0010
0001
,
0100
0010
1000
0100
0010
0001
0100
0010
1000
0100
0010
0100
2002
0000
3003
0000
,
0000
0000
0100
0010
2002
0000
0000
0000
0000
0000
0000
0000
3003
0000
0000
0000
;
